View Single Post
Old 06-19-09, 05:03 AM   #10
resoli
Registered User
 
Join Date: Apr 2009
Posts: 33
Default Re: jerky playback of 1080i under mythtv with vdpau and 9400M (ION)

Quote:
Originally Posted by sgriffin View Post
Looks like you are selecting the wrong output codec. Try:

mplayer -fs -mc 2 -vo vdpau:deint=2 -vc ffmpeg12vdpau jerky.ts
jerky.ts is AVC/h.264 encoded, not mpeg2 ....

Code:
 mediainfo jerky.ts
General
ID                               : 5
Complete name                    : jerky.ts
Format                           : MPEG-TS
File size                        : 8.00 MiB
Duration                         : 6s 808ms
Overall bit rate                 : 9 857 Kbps

Video
ID                               : 535 (0x217)
Menu ID                          : 1 (0x1)
Format                           : AVC
Format/Info                      : Advanced Video Codec
Format profile                   : High@L4.0
Format settings, CABAC           : Yes
Format settings, ReFrames        : 4 frames
Duration                         : 6s 808ms
Bit rate                         : 8 981 Kbps
Width                            : 1 920 pixels
Height                           : 1 080 pixels
Display aspect ratio             : 16/9
Frame rate                       : 25.000 fps
Resolution                       : 24 bits
Colorimetry                      : 4:2:0
Scan type                        : MBAFF
Bits/(Pixel*Frame)               : 0.173
Stream size                      : 7.29 MiB (91%)

Audio
ID                               : 545 (0x221)
Menu ID                          : 1 (0x1)
Format                           : MPEG Audio
Format version                   : Version 1
Format profile                   : Layer 2
Duration                         : 6s 528ms
Bit rate mode                    : Constant
Bit rate                         : 192 Kbps
Channel(s)                       : 2 channels
Sampling rate                    : 48.0 KHz
Resolution                       : 16 bits
Video delay                      : -956ms
Stream size                      : 153 KiB (2%)
Language                         : Italian

Last edited by resoli; 06-19-09 at 06:11 AM. Reason: typo
resoli is offline   Reply With Quote